osu file format v14

[General]
AudioFilename: ginkiha - Oriens-dawn EP - 02 dawn(ginkiha hardcore remix).mp3
AudioLeadIn: 1500
PreviewTime: 107099
Countdown: 0
SampleSet: Normal
StackLeniency: 0.7
Mode: 1
LetterboxInBreaks: 0
WidescreenStoryboard: 0

[Editor]
DistanceSpacing: 1
BeatDivisor: 4
GridSize: 32
TimelineZoom: 1

[Metadata]
Title:dawn(ginkiha hardcore remix)
TitleUnicode:dawn(ginkiha hardcore remix)
Artist:kamome sano
ArtistUnicode:kamome sano
Creator:wendao
Version:qoot8123's Oni
Source:
Tags:tatsuta recordings NIZI-RINGO Oriens sunrise wendao2000 qoot8123 RenzMichael 10nya -_t_e_n_n_y_a_- Harez
BeatmapID:476139
BeatmapSetID:185766

[Difficulty]
HPDrainRate:6
CircleSize:4
OverallDifficulty:5
ApproachRate:4
SliderMultiplier:1.4
SliderTickRate:1

[Events]
//Background and Video events
0,0,"bg.jpg",0,0
//Break Periods
//Storyboard Layer 0 (Background)
//Storyboard Layer 1 (Fail)
//Storyboard Layer 2 (Pass)
//Storyboard Layer 3 (Foreground)
//Storyboard Sound Samples

[TimingPoints]
1022,331.491712707182,4,1,0,40,1,0
21740,-100,4,1,0,80,0,0
64834,-100,4,1,0,40,0,0
85801,-100,4,1,0,50,0,0
96160,-100,4,1,0,60,0,0
104281,-100,4,1,0,70,0,0
105607,-100,4,1,0,80,0,0
107099,-100,4,1,0,85,0,1
149530,-100,4,1,0,85,0,0
170911,-100,4,1,0,60,0,0

[Colours]
Combo1 : 240,100,140
Combo2 : 240,160,120
Combo3 : 100,100,200
Combo4 : 180,150,180

[HitObjects]
256,192,1022,5,0,0:0:0:0:
256,192,1353,1,0,0:0:0:0:
256,192,1684,1,0,0:0:0:0:
256,192,2016,1,8,0:0:0:0:
256,192,2347,1,8,0:0:0:0:
256,192,2679,1,0,0:0:0:0:
256,192,3010,1,0,0:0:0:0:
256,192,3342,1,8,0:0:0:0:
256,192,3673,1,0,0:0:0:0:
256,192,4171,1,0,0:0:0:0:
256,192,4336,1,8,0:0:0:0:
256,192,5331,1,0,0:0:0:0:
256,192,5662,1,8,0:0:0:0:
256,192,5994,1,8,0:0:0:0:
256,192,6325,1,0,0:0:0:0:
256,192,6823,1,8,0:0:0:0:
256,192,6988,1,8,0:0:0:0:
256,192,7983,1,8,0:0:0:0:
256,192,8314,1,0,0:0:0:0:
256,192,8646,1,8,0:0:0:0:
256,192,8977,1,0,0:0:0:0:
256,192,9475,1,0,0:0:0:0:
256,192,9640,1,8,0:0:0:0:
256,192,10469,1,0,0:0:0:0:
256,192,10635,1,8,0:0:0:0:
256,192,10801,1,0,0:0:0:0:
256,192,10966,1,8,0:0:0:0:
256,192,11132,1,0,0:0:0:0:
256,192,11298,1,8,0:0:0:0:
256,192,11463,1,8,0:0:0:0:
256,192,11629,1,0,0:0:0:0:
256,192,11961,1,0,0:0:0:0:
256,192,12292,1,0,0:0:0:0:
256,192,12624,1,8,0:0:0:0:
256,192,12955,1,8,0:0:0:0:
256,192,13287,1,0,0:0:0:0:
256,192,13618,1,0,0:0:0:0:
256,192,13950,1,8,0:0:0:0:
256,192,14281,1,0,0:0:0:0:
256,192,14778,1,0,0:0:0:0:
256,192,14944,1,8,0:0:0:0:
256,192,15939,1,8,0:0:0:0:
256,192,16270,1,8,0:0:0:0:
256,192,16602,1,0,0:0:0:0:
256,192,16933,1,8,0:0:0:0:
256,192,17430,1,0,0:0:0:0:
256,192,17596,1,8,0:0:0:0:
256,192,18591,1,0,0:0:0:0:
256,192,18922,1,0,0:0:0:0:
256,192,19254,1,8,0:0:0:0:
256,192,19585,1,0,0:0:0:0:
256,192,20082,1,8,0:0:0:0:
256,192,20248,1,0,0:0:0:0:
256,192,21905,1,8,0:0:0:0:
256,192,22237,1,4,0:0:0:0:
256,192,22568,1,0,0:0:0:0:
256,192,22734,1,8,0:0:0:0:
256,192,22900,1,0,0:0:0:0:
256,192,23066,1,0,0:0:0:0:
256,192,23231,1,8,0:0:0:0:
256,192,23563,1,0,0:0:0:0:
256,192,23729,1,8,0:0:0:0:
256,192,24060,1,0,0:0:0:0:
256,192,24226,1,8,0:0:0:0:
256,192,24392,1,0,0:0:0:0:
256,192,24557,1,8,0:0:0:0:
256,192,24889,1,0,0:0:0:0:
256,192,25220,1,0,0:0:0:0:
256,192,25386,1,8,0:0:0:0:
256,192,25718,1,8,0:0:0:0:
256,192,25883,1,0,0:0:0:0:
256,192,26049,1,8,0:0:0:0:
256,192,26215,1,8,0:0:0:0:
256,192,26381,1,0,0:0:0:0:
256,192,26546,1,8,0:0:0:0:
256,192,26712,1,8,0:0:0:0:
256,192,26795,1,8,0:0:0:0:
256,192,26878,1,0,0:0:0:0:
256,192,27044,1,8,0:0:0:0:
256,192,27209,1,8,0:0:0:0:
256,192,27375,1,8,0:0:0:0:
256,192,27541,1,0,0:0:0:0:
256,192,27872,1,0,0:0:0:0:
256,192,28038,1,8,0:0:0:0:
256,192,28370,1,0,0:0:0:0:
256,192,28535,1,8,0:0:0:0:
256,192,28701,1,0,0:0:0:0:
256,192,28867,1,0,0:0:0:0:
256,192,29033,1,8,0:0:0:0:
256,192,29364,1,0,0:0:0:0:
256,192,29530,1,8,0:0:0:0:
256,192,29861,1,8,0:0:0:0:
256,192,30027,1,8,0:0:0:0:
256,192,30193,1,0,0:0:0:0:
256,192,30524,1,0,0:0:0:0:
256,192,30690,1,8,0:0:0:0:
256,192,31021,1,8,0:0:0:0:
256,192,31187,1,0,0:0:0:0:
256,192,31353,1,8,0:0:0:0:
256,192,31519,1,8,0:0:0:0:
256,192,31684,1,0,0:0:0:0:
256,192,31850,1,8,0:0:0:0:
256,192,32016,1,0,0:0:0:0:
256,192,32099,1,0,0:0:0:0:
256,192,32182,1,0,0:0:0:0:
256,192,32347,1,8,0:0:0:0:
256,192,32513,1,8,0:0:0:0:
256,192,32596,1,8,0:0:0:0:
256,192,32679,1,0,0:0:0:0:
256,192,32762,1,0,0:0:0:0:
256,192,32845,1,8,0:0:0:0:
256,192,33176,1,0,0:0:0:0:
256,192,33342,1,8,0:0:0:0:
256,192,33508,1,0,0:0:0:0:
256,192,33673,1,0,0:0:0:0:
256,192,33839,1,8,0:0:0:0:
256,192,34171,1,0,0:0:0:0:
256,192,34336,1,8,0:0:0:0:
256,192,34668,1,0,0:0:0:0:
256,192,34834,1,8,0:0:0:0:
256,192,34999,1,0,0:0:0:0:
256,192,35165,1,8,0:0:0:0:
256,192,35497,1,0,0:0:0:0:
256,192,35828,1,0,0:0:0:0:
256,192,35994,1,8,0:0:0:0:
256,192,36325,1,8,0:0:0:0:
256,192,36491,1,0,0:0:0:0:
256,192,36657,1,8,0:0:0:0:
256,192,36823,1,8,0:0:0:0:
256,192,36988,1,0,0:0:0:0:
256,192,37071,1,0,0:0:0:0:
256,192,37154,1,8,0:0:0:0:
256,192,37320,1,0,0:0:0:0:
256,192,37486,1,0,0:0:0:0:
256,192,37651,1,8,0:0:0:0:
256,192,37734,1,8,0:0:0:0:
256,192,37817,1,0,0:0:0:0:
256,192,37900,1,0,0:0:0:0:
256,192,37983,1,8,0:0:0:0:
256,192,38149,1,8,0:0:0:0:
256,192,38480,1,0,0:0:0:0:
256,192,38646,1,8,0:0:0:0:
256,192,38977,1,0,0:0:0:0:
256,192,39143,1,8,0:0:0:0:
256,192,39309,1,0,0:0:0:0:
256,192,39475,1,0,0:0:0:0:
256,192,39640,1,8,0:0:0:0:
256,192,39972,1,0,0:0:0:0:
256,192,40138,1,8,0:0:0:0:
256,192,40469,1,8,0:0:0:0:
256,192,40801,1,8,0:0:0:0:
256,192,40966,1,0,0:0:0:0:
256,192,41132,1,8,0:0:0:0:
256,192,41298,1,8,0:0:0:0:
256,192,41629,1,8,0:0:0:0:
256,192,41795,1,0,0:0:0:0:
256,192,41961,1,8,0:0:0:0:
256,192,42044,1,8,0:0:0:0:
256,192,42126,1,0,0:0:0:0:
256,192,42292,1,8,0:0:0:0:
256,192,42458,1,0,0:0:0:0:
256,192,42624,1,8,0:0:0:0:
256,192,42707,1,8,0:0:0:0:
256,192,42789,1,0,0:0:0:0:
256,192,42872,1,0,0:0:0:0:
256,192,42955,1,8,0:0:0:0:
256,192,43038,1,8,0:0:0:0:
256,192,43121,1,0,0:0:0:0:
256,192,43204,1,0,0:0:0:0:
256,192,43287,1,8,0:0:0:0:
256,192,43452,1,4,0:0:0:0:
256,192,43784,1,0,0:0:0:0:
256,192,43950,1,8,0:0:0:0:
256,192,44115,1,0,0:0:0:0:
256,192,44198,1,0,0:0:0:0:
256,192,44281,1,0,0:0:0:0:
256,192,44447,1,8,0:0:0:0:
256,192,44613,1,0,0:0:0:0:
256,192,44696,1,0,0:0:0:0:
256,192,44778,1,0,0:0:0:0:
256,192,44944,1,8,0:0:0:0:
256,192,45110,1,0,0:0:0:0:
256,192,45276,1,0,0:0:0:0:
256,192,45441,1,8,0:0:0:0:
256,192,45524,1,8,0:0:0:0:
256,192,45607,1,0,0:0:0:0:
256,192,45690,1,0,0:0:0:0:
256,192,45773,1,8,0:0:0:0:
256,192,45939,1,0,0:0:0:0:
256,192,46104,1,8,0:0:0:0:
256,192,46436,1,0,0:0:0:0:
256,192,46602,1,8,0:0:0:0:
256,192,46767,1,0,0:0:0:0:
256,192,46933,1,0,0:0:0:0:
256,192,47099,1,8,0:0:0:0:
256,192,47265,1,8,0:0:0:0:
256,192,47347,1,0,0:0:0:0:
256,192,47430,1,8,0:0:0:0:
256,192,47596,1,0,0:0:0:0:
256,192,47762,1,8,0:0:0:0:
256,192,47928,1,0,0:0:0:0:
256,192,48010,1,0,0:0:0:0:
256,192,48093,1,8,0:0:0:0:
256,192,48259,1,8,0:0:0:0:
256,192,48342,1,8,0:0:0:0:
256,192,48425,1,0,0:0:0:0:
256,192,48508,1,0,0:0:0:0:
256,192,48591,1,8,0:0:0:0:
256,192,48756,1,0,0:0:0:0:
256,192,49088,1,0,0:0:0:0:
256,192,49254,1,8,0:0:0:0:
256,192,49419,1,0,0:0:0:0:
256,192,49502,1,0,0:0:0:0:
256,192,49585,1,0,0:0:0:0:
256,192,49751,1,8,0:0:0:0:
256,192,49917,1,0,0:0:0:0:
256,192,49999,1,0,0:0:0:0:
256,192,50082,1,0,0:0:0:0:
256,192,50248,1,8,0:0:0:0:
256,192,50414,1,0,0:0:0:0:
256,192,50497,1,0,0:0:0:0:
256,192,50580,1,0,0:0:0:0:
256,192,50662,1,0,0:0:0:0:
256,192,50745,1,8,0:0:0:0:
256,192,50911,1,0,0:0:0:0:
256,192,50994,1,0,0:0:0:0:
256,192,51077,1,8,0:0:0:0:
256,192,51242,1,8,0:0:0:0:
256,192,51408,1,0,0:0:0:0:
256,192,51740,1,0,0:0:0:0:
256,192,51905,1,8,0:0:0:0:
256,192,52071,1,0,0:0:0:0:
256,192,52237,1,0,0:0:0:0:
256,192,52403,1,8,0:0:0:0:
256,192,52568,1,0,0:0:0:0:
256,192,52651,1,0,0:0:0:0:
256,192,52734,1,8,0:0:0:0:
256,192,52900,1,8,0:0:0:0:
256,192,52983,1,0,0:0:0:0:
256,192,53066,1,8,0:0:0:0:
256,192,53231,1,0,0:0:0:0:
256,192,53397,1,8,0:0:0:0:
256,192,53480,1,8,0:0:0:0:
256,192,53563,1,0,0:0:0:0:
256,192,53646,1,0,0:0:0:0:
256,192,53729,1,8,0:0:0:0:
256,192,53894,1,8,0:0:0:0:
256,192,54060,1,4,0:0:0:0:
256,192,54392,1,0,0:0:0:0:
256,192,54557,1,8,0:0:0:0:
256,192,54723,1,0,0:0:0:0:
256,192,54806,1,0,0:0:0:0:
256,192,54889,1,0,0:0:0:0:
256,192,55055,1,8,0:0:0:0:
256,192,55220,1,0,0:0:0:0:
256,192,55303,1,0,0:0:0:0:
256,192,55386,1,0,0:0:0:0:
256,192,55552,1,8,0:0:0:0:
256,192,55718,1,0,0:0:0:0:
256,192,55883,1,0,0:0:0:0:
256,192,56049,1,8,0:0:0:0:
256,192,56132,1,8,0:0:0:0:
256,192,56215,1,0,0:0:0:0:
256,192,56298,1,0,0:0:0:0:
256,192,56381,1,8,0:0:0:0:
256,192,56546,1,0,0:0:0:0:
256,192,56712,1,8,0:0:0:0:
256,192,57044,1,0,0:0:0:0:
256,192,57209,1,8,0:0:0:0:
256,192,57375,1,0,0:0:0:0:
256,192,57541,1,8,0:0:0:0:
256,192,57707,1,8,0:0:0:0:
256,192,57872,1,0,0:0:0:0:
256,192,57955,1,0,0:0:0:0:
256,192,58038,1,8,0:0:0:0:
256,192,58204,1,8,0:0:0:0:
256,192,58287,1,8,0:0:0:0:
256,192,58370,1,0,0:0:0:0:
256,192,58535,1,0,0:0:0:0:
256,192,58701,1,8,0:0:0:0:
256,192,58784,1,8,0:0:0:0:
256,192,58867,1,0,0:0:0:0:
256,192,58950,1,0,0:0:0:0:
256,192,59033,1,8,0:0:0:0:
256,192,59198,1,0,0:0:0:0:
256,192,59364,1,8,0:0:0:0:
256,192,59696,1,0,0:0:0:0:
256,192,59861,1,8,0:0:0:0:
256,192,60027,1,0,0:0:0:0:
256,192,60193,1,8,0:0:0:0:
256,192,60359,1,8,0:0:0:0:
256,192,60524,1,0,0:0:0:0:
256,192,60607,1,0,0:0:0:0:
256,192,60690,1,0,0:0:0:0:
256,192,60856,1,8,0:0:0:0:
256,192,61021,1,0,0:0:0:0:
256,192,61104,1,0,0:0:0:0:
256,192,61187,1,0,0:0:0:0:
256,192,61270,1,0,0:0:0:0:
256,192,61353,1,8,0:0:0:0:
256,192,61519,1,0,0:0:0:0:
256,192,61602,1,0,0:0:0:0:
256,192,61684,1,8,0:0:0:0:
256,192,61850,1,0,0:0:0:0:
256,192,62016,1,8,0:0:0:0:
256,192,62347,1,8,0:0:0:0:
256,192,62513,1,8,0:0:0:0:
256,192,62845,1,8,0:0:0:0:
256,192,63010,1,0,0:0:0:0:
256,192,63176,1,8,0:0:0:0:
256,192,63342,1,12,0:0:0:0:
256,192,63508,1,8,0:0:0:0:
256,192,63591,1,0,0:0:0:0:
256,192,63673,1,8,0:0:0:0:
256,192,63839,1,8,0:0:0:0:
256,192,63922,1,8,0:0:0:0:
256,192,64005,1,0,0:0:0:0:
256,192,64088,1,0,0:0:0:0:
256,192,64171,1,8,0:0:0:0:
256,192,64254,1,8,0:0:0:0:
256,192,64336,1,0,0:0:0:0:
256,192,64419,1,0,0:0:0:0:
256,192,64502,1,8,0:0:0:0:
256,192,64668,1,12,0:0:0:0:
256,192,67320,1,8,0:0:0:0:
256,192,67541,1,8,0:0:0:0:
256,192,67762,1,8,0:0:0:0:
256,192,67983,1,0,0:0:0:0:
256,192,68204,1,8,0:0:0:0:
256,192,68425,1,8,0:0:0:0:
256,192,68646,1,0,0:0:0:0:
256,192,68867,1,8,0:0:0:0:
256,192,69088,1,0,0:0:0:0:
256,192,69309,1,0,0:0:0:0:
256,192,69530,1,8,0:0:0:0:
256,192,69751,1,8,0:0:0:0:
256,192,69972,1,0,0:0:0:0:
256,192,70469,1,8,0:0:0:0:
256,192,70966,1,8,0:0:0:0:
256,192,72624,1,8,0:0:0:0:
256,192,72845,1,0,0:0:0:0:
256,192,73066,1,8,0:0:0:0:
256,192,73287,1,8,0:0:0:0:
256,192,73508,1,0,0:0:0:0:
256,192,73729,1,8,0:0:0:0:
256,192,73950,1,0,0:0:0:0:
256,192,74171,1,8,0:0:0:0:
256,192,74392,1,0,0:0:0:0:
256,192,74613,1,8,0:0:0:0:
256,192,74834,1,8,0:0:0:0:
256,192,75055,1,8,0:0:0:0:
256,192,75276,1,12,0:0:0:0:
256,192,75773,1,8,0:0:0:0:
256,192,76270,1,8,0:0:0:0:
256,192,77928,1,8,0:0:0:0:
256,192,78149,1,8,0:0:0:0:
256,192,78370,1,8,0:0:0:0:
256,192,78591,1,0,0:0:0:0:
256,192,78812,1,8,0:0:0:0:
256,192,79033,1,8,0:0:0:0:
256,192,79254,1,0,0:0:0:0:
256,192,79475,1,8,0:0:0:0:
256,192,79696,1,8,0:0:0:0:
256,192,79917,1,0,0:0:0:0:
256,192,80138,1,0,0:0:0:0:
256,192,80359,1,8,0:0:0:0:
256,192,80580,1,0,0:0:0:0:
256,192,81077,1,8,0:0:0:0:
256,192,81574,1,8,0:0:0:0:
256,192,83231,1,8,0:0:0:0:
256,192,83452,1,0,0:0:0:0:
256,192,83673,1,8,0:0:0:0:
256,192,83894,1,8,0:0:0:0:
256,192,84115,1,0,0:0:0:0:
256,192,84336,1,8,0:0:0:0:
256,192,84557,1,8,0:0:0:0:
256,192,84778,1,0,0:0:0:0:
256,192,84999,1,8,0:0:0:0:
256,192,85220,1,0,0:0:0:0:
256,192,85441,1,8,0:0:0:0:
256,192,85662,1,8,0:0:0:0:
256,192,85883,1,0,0:0:0:0:
256,192,86381,1,8,0:0:0:0:
256,192,86878,1,8,0:0:0:0:
256,192,88535,1,8,0:0:0:0:
256,192,89033,1,8,0:0:0:0:
256,192,89530,1,8,0:0:0:0:
256,192,91187,1,8,0:0:0:0:
256,192,91684,1,8,0:0:0:0:
256,192,92182,1,8,0:0:0:0:
256,192,93839,1,8,0:0:0:0:
256,192,94336,1,8,0:0:0:0:
256,192,94834,1,8,0:0:0:0:
256,192,96491,1,0,0:0:0:0:
256,192,97154,1,8,0:0:0:0:
256,192,97817,1,0,0:0:0:0:
256,192,98480,1,8,0:0:0:0:
256,192,99143,1,0,0:0:0:0:
256,192,99806,1,8,0:0:0:0:
256,192,100469,1,0,0:0:0:0:
256,192,101132,1,8,0:0:0:0:
256,192,101795,1,0,0:0:0:0:
256,192,102126,1,8,0:0:0:0:
256,192,102458,1,0,0:0:0:0:
256,192,102789,1,8,0:0:0:0:
256,192,103121,1,0,0:0:0:0:
256,192,103452,1,8,0:0:0:0:
256,192,103784,1,0,0:0:0:0:
256,192,104115,1,8,0:0:0:0:
256,192,104447,1,0,0:0:0:0:
256,192,105773,1,0,0:0:0:0:
256,192,105939,1,0,0:0:0:0:
256,192,106104,1,8,0:0:0:0:
256,192,106353,1,0,0:0:0:0:
256,192,106436,1,8,0:0:0:0:
256,192,106519,1,8,0:0:0:0:
256,192,106602,1,0,0:0:0:0:
256,192,106684,1,0,0:0:0:0:
256,192,106767,1,0,0:0:0:0:
256,192,106850,1,0,0:0:0:0:
256,192,106933,1,8,0:0:0:0:
256,192,107099,1,4,0:0:0:0:
256,192,107430,1,8,0:0:0:0:
256,192,107762,1,0,0:0:0:0:
256,192,107845,1,0,0:0:0:0:
256,192,107928,1,0,0:0:0:0:
256,192,108093,1,8,0:0:0:0:
256,192,108259,1,0,0:0:0:0:
256,192,108342,1,0,0:0:0:0:
256,192,108425,1,8,0:0:0:0:
256,192,108591,1,0,0:0:0:0:
256,192,108756,1,8,0:0:0:0:
256,192,108839,1,8,0:0:0:0:
256,192,108922,1,0,0:0:0:0:
256,192,109005,1,0,0:0:0:0:
256,192,109088,1,8,0:0:0:0:
256,192,109254,1,0,0:0:0:0:
256,192,109419,1,8,0:0:0:0:
256,192,109585,1,8,0:0:0:0:
256,192,109751,1,0,0:0:0:0:
256,192,110082,1,8,0:0:0:0:
256,192,110248,1,0,0:0:0:0:
256,192,110414,1,8,0:0:0:0:
256,192,110745,1,8,0:0:0:0:
256,192,111077,1,0,0:0:0:0:
256,192,111408,1,8,0:0:0:0:
256,192,111574,1,0,0:0:0:0:
256,192,111657,1,0,0:0:0:0:
256,192,111740,1,0,0:0:0:0:
256,192,111905,1,0,0:0:0:0:
256,192,112071,1,8,0:0:0:0:
256,192,112237,1,8,0:0:0:0:
256,192,112403,1,0,0:0:0:0:
256,192,112734,1,8,0:0:0:0:
256,192,112900,1,0,0:0:0:0:
256,192,113066,1,0,0:0:0:0:
256,192,113397,1,8,0:0:0:0:
256,192,113729,1,0,0:0:0:0:
256,192,114060,1,8,0:0:0:0:
256,192,114226,1,0,0:0:0:0:
256,192,114309,1,0,0:0:0:0:
256,192,114392,1,0,0:0:0:0:
256,192,114557,1,0,0:0:0:0:
256,192,114723,1,8,0:0:0:0:
256,192,114889,1,0,0:0:0:0:
256,192,115055,1,8,0:0:0:0:
256,192,115386,1,8,0:0:0:0:
256,192,115552,1,0,0:0:0:0:
256,192,115718,1,8,0:0:0:0:
256,192,116049,1,8,0:0:0:0:
256,192,116381,1,0,0:0:0:0:
256,192,116546,1,8,0:0:0:0:
256,192,116629,1,0,0:0:0:0:
256,192,116712,1,8,0:0:0:0:
256,192,116878,1,0,0:0:0:0:
256,192,117044,1,8,0:0:0:0:
256,192,117209,1,0,0:0:0:0:
256,192,117292,1,0,0:0:0:0:
256,192,117375,1,8,0:0:0:0:
256,192,117541,1,0,0:0:0:0:
256,192,117707,1,4,0:0:0:0:
256,192,118038,1,8,0:0:0:0:
256,192,118370,1,0,0:0:0:0:
256,192,118452,1,0,0:0:0:0:
256,192,118535,1,0,0:0:0:0:
256,192,118701,1,8,0:0:0:0:
256,192,118867,1,0,0:0:0:0:
256,192,118950,1,0,0:0:0:0:
256,192,119033,1,8,0:0:0:0:
256,192,119198,1,0,0:0:0:0:
256,192,119364,1,8,0:0:0:0:
256,192,119447,1,8,0:0:0:0:
256,192,119530,1,0,0:0:0:0:
256,192,119613,1,0,0:0:0:0:
256,192,119696,1,8,0:0:0:0:
256,192,119861,1,0,0:0:0:0:
256,192,120027,1,8,0:0:0:0:
256,192,120193,1,8,0:0:0:0:
256,192,120359,1,0,0:0:0:0:
256,192,120690,1,8,0:0:0:0:
256,192,120856,1,0,0:0:0:0:
256,192,121021,1,8,0:0:0:0:
256,192,121353,1,8,0:0:0:0:
256,192,121684,1,0,0:0:0:0:
256,192,122016,1,8,0:0:0:0:
256,192,122182,1,0,0:0:0:0:
256,192,122265,1,0,0:0:0:0:
256,192,122347,1,8,0:0:0:0:
256,192,122513,1,0,0:0:0:0:
256,192,122679,1,8,0:0:0:0:
256,192,122845,1,0,0:0:0:0:
256,192,123010,1,8,0:0:0:0:
256,192,123342,1,8,0:0:0:0:
256,192,123508,1,0,0:0:0:0:
256,192,123673,1,8,0:0:0:0:
256,192,124005,1,8,0:0:0:0:
256,192,124336,1,0,0:0:0:0:
256,192,124668,1,0,0:0:0:0:
256,192,124834,1,0,0:0:0:0:
256,192,124917,1,0,0:0:0:0:
256,192,124999,1,8,0:0:0:0:
256,192,125165,1,0,0:0:0:0:
256,192,125331,1,8,0:0:0:0:
256,192,125497,1,8,0:0:0:0:
256,192,125662,1,0,0:0:0:0:
256,192,125994,1,0,0:0:0:0:
256,192,126160,1,8,0:0:0:0:
256,192,126325,1,8,0:0:0:0:
256,192,126657,1,8,0:0:0:0:
256,192,126988,1,0,0:0:0:0:
256,192,127154,1,8,0:0:0:0:
256,192,127237,1,0,0:0:0:0:
256,192,127320,1,8,0:0:0:0:
256,192,127486,1,8,0:0:0:0:
256,192,127651,1,0,0:0:0:0:
256,192,127734,1,0,0:0:0:0:
256,192,127817,1,8,0:0:0:0:
256,192,127900,1,8,0:0:0:0:
256,192,127983,1,0,0:0:0:0:
256,192,128149,1,8,0:0:0:0:
256,192,128314,1,4,0:0:0:0:
256,192,128646,1,8,0:0:0:0:
256,192,128977,1,0,0:0:0:0:
256,192,129060,1,0,0:0:0:0:
256,192,129143,1,0,0:0:0:0:
256,192,129309,1,8,0:0:0:0:
256,192,129475,1,0,0:0:0:0:
256,192,129557,1,0,0:0:0:0:
256,192,129640,1,8,0:0:0:0:
256,192,129806,1,0,0:0:0:0:
256,192,129972,1,8,0:0:0:0:
256,192,130055,1,8,0:0:0:0:
256,192,130138,1,0,0:0:0:0:
256,192,130220,1,0,0:0:0:0:
256,192,130303,1,8,0:0:0:0:
256,192,130469,1,0,0:0:0:0:
256,192,130635,1,8,0:0:0:0:
256,192,130801,1,8,0:0:0:0:
256,192,130966,1,0,0:0:0:0:
256,192,131298,1,8,0:0:0:0:
256,192,131463,1,0,0:0:0:0:
256,192,131629,1,8,0:0:0:0:
256,192,131961,1,8,0:0:0:0:
256,192,132292,1,0,0:0:0:0:
256,192,132624,1,8,0:0:0:0:
256,192,132789,1,0,0:0:0:0:
256,192,132872,1,0,0:0:0:0:
256,192,132955,1,8,0:0:0:0:
256,192,133121,1,0,0:0:0:0:
256,192,133287,1,8,0:0:0:0:
256,192,133452,1,8,0:0:0:0:
256,192,133618,1,0,0:0:0:0:
256,192,133950,1,8,0:0:0:0:
256,192,134115,1,0,0:0:0:0:
256,192,134281,1,0,0:0:0:0:
256,192,134613,1,8,0:0:0:0:
256,192,134944,1,0,0:0:0:0:
256,192,135276,1,8,0:0:0:0:
256,192,135441,1,0,0:0:0:0:
256,192,135524,1,0,0:0:0:0:
256,192,135607,1,8,0:0:0:0:
256,192,135773,1,0,0:0:0:0:
256,192,135939,1,8,0:0:0:0:
256,192,136104,1,8,0:0:0:0:
256,192,136270,1,0,0:0:0:0:
256,192,136602,1,0,0:0:0:0:
256,192,136767,1,0,0:0:0:0:
256,192,136933,1,8,0:0:0:0:
256,192,137265,1,8,0:0:0:0:
256,192,137596,1,0,0:0:0:0:
256,192,137762,1,8,0:0:0:0:
256,192,137845,1,0,0:0:0:0:
256,192,137928,1,8,0:0:0:0:
256,192,138093,1,0,0:0:0:0:
256,192,138259,1,8,0:0:0:0:
256,192,138342,1,8,0:0:0:0:
256,192,138425,1,0,0:0:0:0:
256,192,138508,1,0,0:0:0:0:
256,192,138591,1,8,0:0:0:0:
256,192,138756,1,0,0:0:0:0:
256,192,138922,1,4,0:0:0:0:
256,192,139254,1,8,0:0:0:0:
256,192,139585,1,0,0:0:0:0:
256,192,139668,1,0,0:0:0:0:
256,192,139751,1,0,0:0:0:0:
256,192,139917,1,8,0:0:0:0:
256,192,140082,1,0,0:0:0:0:
256,192,140165,1,0,0:0:0:0:
256,192,140248,1,8,0:0:0:0:
256,192,140414,1,0,0:0:0:0:
256,192,140580,1,8,0:0:0:0:
256,192,140662,1,8,0:0:0:0:
256,192,140745,1,0,0:0:0:0:
256,192,140828,1,0,0:0:0:0:
256,192,140911,1,8,0:0:0:0:
256,192,141077,1,0,0:0:0:0:
256,192,141242,1,8,0:0:0:0:
256,192,141408,1,8,0:0:0:0:
256,192,141574,1,0,0:0:0:0:
256,192,141905,1,8,0:0:0:0:
256,192,142071,1,0,0:0:0:0:
256,192,142237,1,8,0:0:0:0:
256,192,142568,1,8,0:0:0:0:
256,192,142900,1,0,0:0:0:0:
256,192,143231,1,8,0:0:0:0:
256,192,143397,1,0,0:0:0:0:
256,192,143480,1,0,0:0:0:0:
256,192,143563,1,8,0:0:0:0:
256,192,143729,1,0,0:0:0:0:
256,192,143894,1,8,0:0:0:0:
256,192,144060,1,0,0:0:0:0:
256,192,144226,1,8,0:0:0:0:
256,192,144557,1,8,0:0:0:0:
256,192,144723,1,0,0:0:0:0:
256,192,144889,1,8,0:0:0:0:
256,192,145220,1,8,0:0:0:0:
256,192,145552,1,0,0:0:0:0:
256,192,145883,1,0,0:0:0:0:
256,192,146049,1,0,0:0:0:0:
256,192,146132,1,0,0:0:0:0:
256,192,146215,1,8,0:0:0:0:
256,192,146381,1,0,0:0:0:0:
256,192,146546,1,8,0:0:0:0:
256,192,146712,1,8,0:0:0:0:
256,192,146878,1,0,0:0:0:0:
256,192,147872,1,8,0:0:0:0:
256,192,148038,1,0,0:0:0:0:
256,192,148204,1,0,0:0:0:0:
256,192,148370,1,8,0:0:0:0:
256,192,148452,1,0,0:0:0:0:
256,192,148535,1,8,0:0:0:0:
256,192,148701,1,8,0:0:0:0:
256,192,148784,1,0,0:0:0:0:
256,192,148867,1,0,0:0:0:0:
256,192,148950,1,0,0:0:0:0:
256,192,149033,1,8,0:0:0:0:
256,192,149115,1,8,0:0:0:0:
256,192,149198,1,0,0:0:0:0:
256,192,149281,1,0,0:0:0:0:
256,192,149364,1,8,0:0:0:0:
256,192,149530,1,4,0:0:0:0:
256,192,149861,1,0,0:0:0:0:
256,192,150193,1,0,0:0:0:0:
256,192,150524,1,8,0:0:0:0:
256,192,150856,1,0,0:0:0:0:
256,192,151187,1,0,0:0:0:0:
256,192,151353,1,0,0:0:0:0:
256,192,151519,1,0,0:0:0:0:
256,192,151850,1,8,0:0:0:0:
256,192,152182,1,0,0:0:0:0:
256,192,152679,1,0,0:0:0:0:
256,192,152845,1,8,0:0:0:0:
256,192,153176,1,8,0:0:0:0:
256,192,153508,1,0,0:0:0:0:
256,192,153839,1,8,0:0:0:0:
256,192,154005,1,0,0:0:0:0:
256,192,154171,1,8,0:0:0:0:
256,192,154502,1,8,0:0:0:0:
256,192,154834,1,0,0:0:0:0:
256,192,155331,1,8,0:0:0:0:
256,192,155497,1,8,0:0:0:0:
256,192,155828,1,8,0:0:0:0:
256,192,156160,1,0,0:0:0:0:
256,192,156491,1,0,0:0:0:0:
256,192,156823,1,8,0:0:0:0:
256,192,157154,1,8,0:0:0:0:
256,192,157320,1,8,0:0:0:0:
256,192,157486,1,0,0:0:0:0:
256,192,157983,1,0,0:0:0:0:
256,192,158149,1,8,0:0:0:0:
256,192,158480,1,8,0:0:0:0:
256,192,158812,1,0,0:0:0:0:
256,192,158977,1,8,0:0:0:0:
256,192,159143,1,8,0:0:0:0:
256,192,159309,1,0,0:0:0:0:
256,192,159475,1,8,0:0:0:0:
256,192,159640,1,0,0:0:0:0:
256,192,159806,1,8,0:0:0:0:
256,192,159972,1,8,0:0:0:0:
256,192,160138,1,0,0:0:0:0:
256,192,160469,1,0,0:0:0:0:
256,192,160801,1,8,0:0:0:0:
256,192,161132,1,8,0:0:0:0:
256,192,161463,1,0,0:0:0:0:
256,192,161795,1,0,0:0:0:0:
256,192,161961,1,0,0:0:0:0:
256,192,162126,1,0,0:0:0:0:
256,192,162458,1,8,0:0:0:0:
256,192,162789,1,0,0:0:0:0:
256,192,163287,1,0,0:0:0:0:
256,192,163452,1,8,0:0:0:0:
256,192,163784,1,8,0:0:0:0:
256,192,164115,1,0,0:0:0:0:
256,192,164447,1,8,0:0:0:0:
256,192,164613,1,0,0:0:0:0:
256,192,164778,1,8,0:0:0:0:
256,192,165110,1,8,0:0:0:0:
256,192,165441,1,0,0:0:0:0:
256,192,165939,1,0,0:0:0:0:
256,192,166104,1,8,0:0:0:0:
256,192,166436,1,8,0:0:0:0:
256,192,166767,1,0,0:0:0:0:
256,192,167099,1,0,0:0:0:0:
256,192,167430,1,8,0:0:0:0:
256,192,167762,1,8,0:0:0:0:
256,192,167928,1,8,0:0:0:0:
256,192,168093,1,0,0:0:0:0:
256,192,168591,1,8,0:0:0:0:
256,192,168756,1,0,0:0:0:0:
256,192,169088,1,8,0:0:0:0:
256,192,169419,1,0,0:0:0:0:
256,192,170580,1,0,0:0:0:0:
256,192,170745,1,0,0:0:0:0:
256,192,171242,1,8,0:0:0:0:
256,192,171740,1,8,0:0:0:0:
256,192,172734,1,8,0:0:0:0:
256,192,173066,1,8,0:0:0:0:
256,192,173397,1,0,0:0:0:0:
256,192,173894,1,8,0:0:0:0:
256,192,174392,1,8,0:0:0:0:
256,192,175386,1,8,0:0:0:0:
256,192,175718,1,8,0:0:0:0:
256,192,176049,1,0,0:0:0:0:
256,192,176546,1,8,0:0:0:0:
256,192,177044,1,8,0:0:0:0:
256,192,178038,1,8,0:0:0:0:
256,192,178370,1,8,0:0:0:0:
256,192,178701,1,0,0:0:0:0:
256,192,179198,1,8,0:0:0:0:
256,192,179696,1,8,0:0:0:0:
256,192,180690,1,8,0:0:0:0:
256,192,181021,1,8,0:0:0:0:
256,192,181353,1,0,0:0:0:0:
256,192,181850,1,8,0:0:0:0:
256,192,182347,1,8,0:0:0:0:
256,192,183342,1,8,0:0:0:0:
256,192,183673,1,8,0:0:0:0:
256,192,184005,1,0,0:0:0:0:
256,192,184502,1,8,0:0:0:0:
256,192,184999,1,8,0:0:0:0:
256,192,186325,1,8,0:0:0:0:
256,192,186657,1,0,0:0:0:0:
256,192,187154,1,8,0:0:0:0:
256,192,187651,1,8,0:0:0:0:
256,192,189309,1,0,0:0:0:0:
256,192,189806,1,8,0:0:0:0:
256,192,190303,1,8,0:0:0:0:
256,192,191961,1,12,0:0:0:0:
